osu file format v14

[General]
AudioFilename: NBGirls.mp3
AudioLeadIn: 1500
PreviewTime: 57264
Countdown: 0
SampleSet: Normal
StackLeniency: 0.7
Mode: 1
LetterboxInBreaks: 0
WidescreenStoryboard: 0

[Editor]
DistanceSpacing: 1
BeatDivisor: 2
GridSize: 32
TimelineZoom: 1.2

[Metadata]
Title:No brand girls(TV Size)
TitleUnicode:No brand girls(TVサイズ)
Artist:u's
ArtistUnicode:μ's
Creator:JUDYDANNY
Version:Futsuu
Source:Love Live! School idol project
Tags:ラブライブ! muse μ's START:DASH!! 畑 亞貴 Hata Aki 河田貴央 Kawada Takaou 高坂 穂乃果 Kousaka Honoka 新田恵海 Nitta Emi 南 ことり Minami Kotori 内田彩 Uchida Aya 園田 海未 Sonoda Umi 三森すずこ Mimori Suzuko 星空 凛 Hoshizora Rin 飯田里穂 Iida Riho 小泉 花陽 Koizumi Hanayo 久保ユリカ Kubo Yurika 西木野 真姫 Nishikino Maki Pile 矢澤 にこ Yazawa Niko 徳井青空 Tokui Sora 絢瀬 絵里 Ayase Eri 南條愛乃 Nanjo Yoshino 東條 希 Toujo Nozomi 楠田亜衣奈 Kusuda Aina
BeatmapID:241324
BeatmapSetID:88572

[Difficulty]
HPDrainRate:4
CircleSize:5
OverallDifficulty:4
ApproachRate:5
SliderMultiplier:1.2
SliderTickRate:1

[Events]
//Background and Video events
0,0,"bg.jpg",0,120
//Break Periods
//Storyboard Layer 0 (Background)
//Storyboard Layer 1 (Fail)
//Storyboard Layer 2 (Pass)
//Storyboard Layer 3 (Foreground)
//Storyboard Sound Samples

[TimingPoints]
1300,304.568527918782,4,1,0,90,1,0
57314,304.568527918782,4,1,0,90,1,1
73782,304.568527918782,4,1,0,90,1,1
74391,304.568527918782,4,1,0,90,1,0
79273,304.568527918782,4,1,0,90,1,0

[Colours]
Combo1 : 0,0,0
Combo2 : 255,0,0

[HitObjects]
224,128,3431,5,2,0:0:0:0:
208,144,3736,1,0,0:0:0:0:
128,168,5868,1,2,0:0:0:0:
128,168,6173,1,0,0:0:0:0:
160,96,6782,1,0,0:0:0:0:
160,96,7391,1,0,0:0:0:0:
160,96,8000,1,0,0:0:0:0:
204,196,8305,1,2,0:0:0:0:
204,196,8609,1,0,0:0:0:0:
160,96,9218,1,2,0:0:0:0:
204,196,9827,1,2,0:0:0:0:
204,196,10132,1,2,0:0:0:0:
204,196,10437,1,0,0:0:0:0:
204,196,10741,1,6,0:0:0:0:
204,196,11046,1,0,0:0:0:0:
236,256,11350,1,2,0:0:0:0:
236,256,11959,1,2,0:0:0:0:
236,256,12569,1,2,0:0:0:0:
236,256,13178,1,2,0:0:0:0:
236,256,13482,1,0,0:0:0:0:
236,256,13787,1,2,0:0:0:0:
236,256,14396,1,2,0:0:0:0:
236,256,15005,1,2,0:0:0:0:
236,256,15614,1,2,0:0:0:0:
236,256,15919,1,0,0:0:0:0:
236,256,16223,1,2,0:0:0:0:
236,256,16832,1,2,0:0:0:0:
236,256,17442,1,2,0:0:0:0:
236,256,18051,1,2,0:0:0:0:
236,256,18355,1,0,0:0:0:0:
236,256,18660,1,2,0:0:0:0:
236,256,19269,1,2,0:0:0:0:
236,256,19574,1,0,0:0:0:0:
236,256,19878,1,2,0:0:0:0:
236,256,20183,1,2,0:0:0:0:
384,260,20335,1,2,0:0:0:0:
236,256,20487,1,2,0:0:0:0:
236,256,20792,5,0,0:0:0:0:
216,240,21401,1,0,0:0:0:0:
236,256,22010,1,0,0:0:0:0:
216,240,22619,1,0,0:0:0:0:
160,32,23228,5,2,0:0:0:0:
236,256,23838,1,2,0:0:0:0:
236,256,24447,1,2,0:0:0:0:
236,256,25056,1,2,0:0:0:0:
304,260,25665,5,0,0:0:0:0:
256,160,25970,1,2,0:0:0:0:
236,256,26274,1,2,0:0:0:0:
160,64,26731,1,0,0:0:0:0:
236,256,27188,1,2,0:0:0:0:
236,256,27492,1,2,0:0:0:0:
236,256,28102,1,0,0:0:0:0:
236,256,28406,1,2,0:0:0:0:
236,256,28711,1,2,0:0:0:0:
236,256,29168,1,0,0:0:0:0:
192,128,29624,1,2,0:0:0:0:
236,256,29929,1,6,0:0:0:0:
236,256,30538,5,0,0:0:0:0:
236,256,31147,1,0,0:0:0:0:
360,248,31756,1,0,0:0:0:0:
236,256,32061,1,0,0:0:0:0:
360,248,32365,1,0,0:0:0:0:
236,256,32975,1,2,0:0:0:0:
192,32,33584,1,2,0:0:0:0:
236,256,34193,1,2,0:0:0:0:
224,76,34497,1,2,0:0:0:0:
236,256,34802,1,2,0:0:0:0:
236,256,35411,5,0,0:0:0:0:
324,256,35716,1,2,0:0:0:0:
324,256,36020,1,2,0:0:0:0:
236,256,36477,1,0,0:0:0:0:
364,272,36934,1,2,0:0:0:0:
236,256,37239,1,2,0:0:0:0:
236,256,37848,1,0,0:0:0:0:
236,256,38152,1,2,0:0:0:0:
236,256,38457,1,2,0:0:0:0:
220,236,38914,1,0,0:0:0:0:
220,236,39371,1,6,0:0:0:0:
220,236,39675,1,6,0:0:0:0:
220,236,39980,1,6,0:0:0:0:
220,236,40284,5,0,0:0:0:0:
220,236,40741,1,0,0:0:0:0:
220,236,41046,1,0,0:0:0:0:
220,236,41350,1,2,0:0:0:0:
184,72,41959,1,0,0:0:0:0:
276,220,42721,1,2,0:0:0:0:
276,220,43178,1,2,0:0:0:0:
276,220,43482,1,2,0:0:0:0:
276,220,43787,1,0,0:0:0:0:
276,220,44244,1,2,0:0:0:0:
320,216,44548,1,0,0:0:0:0:
320,216,45157,1,0,0:0:0:0:
320,296,45614,1,0,0:0:0:0:
320,296,45919,1,0,0:0:0:0:
320,296,46223,1,2,0:0:0:0:
320,296,46832,1,0,0:0:0:0:
224,128,47137,1,2,0:0:0:0:
308,272,47442,1,0,0:0:0:0:
288,256,47594,1,0,0:0:0:0:
328,256,48203,1,2,0:0:0:0:
352,328,49421,1,2,0:0:0:0:
316,296,50030,1,0,0:0:0:0:
304,248,50640,1,2,0:0:0:0:
260,192,51858,1,2,0:0:0:0:
260,192,52467,1,0,0:0:0:0:
260,192,53076,1,2,0:0:0:0:
260,192,54294,1,2,0:0:0:0:
260,192,54904,1,0,0:0:0:0:
192,64,55208,1,0,0:0:0:0:
260,192,55513,1,0,0:0:0:0:
224,160,55665,1,0,0:0:0:0:
260,192,55970,1,2,0:0:0:0:
328,296,57314,1,4,0:0:0:0:
328,296,57618,1,4,0:0:0:0:
328,296,57923,1,4,0:0:0:0:
212,200,58532,1,0,0:0:0:0:
160,112,58836,1,2,0:0:0:0:
212,200,59141,1,0,0:0:0:0:
192,160,59293,1,0,0:0:0:0:
192,64,59445,1,2,0:0:0:0:
212,200,59750,1,6,0:0:0:0:
212,200,60055,1,6,0:0:0:0:
212,200,60359,1,6,0:0:0:0:
212,200,60968,1,2,0:0:0:0:
212,200,61273,1,0,0:0:0:0:
212,200,61577,1,2,0:0:0:0:
192,128,61730,1,2,0:0:0:0:
192,32,61882,1,0,0:0:0:0:
212,200,62187,1,2,0:0:0:0:
212,200,62491,1,2,0:0:0:0:
192,32,63100,1,2,0:0:0:0:
212,200,63405,1,0,0:0:0:0:
160,96,63709,1,0,0:0:0:0:
160,96,63862,1,0,0:0:0:0:
212,200,64166,1,2,0:0:0:0:
212,200,64623,1,0,0:0:0:0:
128,96,64928,1,0,0:0:0:0:
212,200,65232,1,2,0:0:0:0:
128,96,65537,1,2,0:0:0:0:
224,160,65841,1,0,0:0:0:0:
268,200,66146,1,0,0:0:0:0:
268,200,66298,1,0,0:0:0:0:
268,200,66451,1,2,0:0:0:0:
228,264,67060,1,4,0:0:0:0:
228,264,67364,1,4,0:0:0:0:
228,264,67669,1,4,0:0:0:0:
228,264,68278,1,0,0:0:0:0:
228,264,68583,1,2,0:0:0:0:
228,264,68887,1,0,0:0:0:0:
224,224,69039,1,0,0:0:0:0:
224,160,69192,1,2,0:0:0:0:
228,264,69496,1,6,0:0:0:0:
172,88,69801,1,6,0:0:0:0:
172,88,70105,1,6,0:0:0:0:
208,208,70715,1,2,0:0:0:0:
208,208,71019,1,0,0:0:0:0:
208,208,71324,1,2,0:0:0:0:
192,128,71476,1,2,0:0:0:0:
192,64,71628,1,0,0:0:0:0:
244,220,71933,1,2,0:0:0:0:
244,220,72542,1,2,0:0:0:0:
192,96,72846,1,0,0:0:0:0:
244,220,73151,1,2,0:0:0:0:
244,220,73782,1,2,0:0:0:0:
244,220,74086,1,2,0:0:0:0:
244,220,74391,1,0,0:0:0:0:
244,220,75000,1,2,0:0:0:0:
244,192,75609,1,0,0:0:0:0:
244,192,75913,1,0,0:0:0:0:
244,220,76218,1,2,0:0:0:0:
244,192,76827,1,2,0:0:0:0:
244,192,77132,1,0,0:0:0:0:
244,192,77436,1,0,0:0:0:0:
224,128,77588,1,0,0:0:0:0:
244,192,77741,1,0,0:0:0:0:
200,96,78045,1,6,0:0:0:0:
216,268,79273,1,0,0:0:0:0:
216,268,79882,1,0,0:0:0:0:
140,260,80491,1,0,0:0:0:0:
140,260,80795,1,0,0:0:0:0:
140,260,81100,1,0,0:0:0:0:
140,260,81709,1,0,0:0:0:0:
140,260,82318,1,0,0:0:0:0:
376,240,82623,1,2,0:0:0:0:
140,260,83080,1,0,0:0:0:0:
192,192,83384,1,0,0:0:0:0:
140,260,83536,1,0,0:0:0:0:
140,260,83841,1,6,0:0:0:0:
332,276,84146,1,0,0:0:0:0:
236,256,84450,1,2,0:0:0:0:
236,256,85059,1,2,0:0:0:0:
236,256,85668,1,2,0:0:0:0:
236,256,86278,1,2,0:0:0:0:
236,256,86582,1,0,0:0:0:0:
236,256,86887,1,2,0:0:0:0:
236,256,87496,1,2,0:0:0:0:
236,256,88105,1,2,0:0:0:0:
236,256,88714,1,2,0:0:0:0:
236,256,89019,1,0,0:0:0:0:
236,256,89323,1,2,0:0:0:0:
236,256,89932,1,2,0:0:0:0:
236,256,90542,1,2,0:0:0:0:
236,256,91151,1,2,0:0:0:0:
236,256,91455,1,0,0:0:0:0:
236,256,91760,1,2,0:0:0:0:
236,256,92369,1,2,0:0:0:0:
236,256,92674,1,0,0:0:0:0:
236,256,92978,1,2,0:0:0:0:
236,256,93283,1,2,0:0:0:0:
168,96,93435,1,2,0:0:0:0:
168,96,93587,1,2,0:0:0:0:
236,256,93892,1,4,0:0:0:0:
